#TITLE:Oasis;
#SUBTITLE:(Long Version);
#ARTIST:KaW;
#TITLETRANSLIT:;
#SUBTITLETRANSLIT:;
#ARTISTTRANSLIT:;
#CREDIT:;
#BANNER:;
#BACKGROUND:;
#LYRICSPATH:;
#CDTITLE:;
#MUSIC:Oasis (long version).ogg;
#OFFSET:-0.067;
#SAMPLESTART:26.553;
#SAMPLELENGTH:14.000;
#SELECTABLE:YES;
#BPMS:0.000=145.000;
#STOPS:;
#BGCHANGES:;
// cache tags:
#FIRSTBEAT:16.000;
#LASTBEAT:482.000;
#SONGFILENAME:Songs/nhac/Oasis (Long Version)/Oasis (long version).sm;
#HASMUSIC:1;
#HASBANNER:0;
#MUSICLENGTH:105.000;
// end cache tags

//---------------dance-single - Blank----------------
#NOTES:
     dance-single:
     Blank:
     Challenge:
     10:
     1.000,1.000,0.819,1.000,1.000,943.000,86.000,219.000,43.000,13.000:

0000
0000
0000
0000
,
0000
0000
0000
0000
,
0000
0000
0000
0000
,
0000
0000
0000
0000
,
0020
0000
0000
0130
0002
0000
0000
0013
,
0200
0000
0000
0000
0010
0000
0000
0000
1300
0000
0000
1000
0010
0000
0100
0000
,
0002
0000
0000
0103
0020
0000
0000
1030
,
0200
0000
0010
0000
0301
0100
1000
0010
,
1020
0000
0000
0000
0130
0000
0000
0100
0001
0000
0010
0000
0001
0000
0000
0000
,
0210
0000
0000
0000
1300
0000
0000
1000
0010
0000
0100
0000
0100
0000
0000
0000
,
2100
0000
0000
0000
3001
0000
0000
0001
0010
0000
0100
0000
0010
0000
0000
0000
,
0102
0000
0000
0000
1003
0000
0000
1000
0010
0000
0100
0000
0100
0000
1001
0000
,
2010
0000
0000
0000
3100
0000
0000
0010
0100
0000
1000
0000
0010
0000
0000
0000
,
0201
0000
0000
0000
1300
0000
0000
0100
0010
0000
1000
0000
1000
0000
0000
0000
,
0102
0M13
1200
M301
,
0012
0000
0000
0000
10M3
0000
0000
0000
1000
0100
1000
0001
0010
0001
0100
0000
,
0010
0100
0001
0000
0010
0000
0001
0000
1000
0000
0100
0000
1000
0000
0010
0000
,
0100
1000
0100
0001
0010
0011
1001
0000
,
1000
0100
0010
0000
0100
0000
0010
0000
0001
0000
1000
0000
0010
0000
0001
0000
,
0010
1000
0001
0010
0100
0000
0110
1001
,
0001
0100
0010
0000
1000
0000
0010
0000
0100
0000
0010
0000
1000
0000
0100
0000
,
0001
0100
0010
0001
1000
1100
1010
0000
,
0010
0100
0001
0000
0010
0000
0100
0000
1000
0000
0001
0000
0010
0000
1000
0000
,
0010
0001
0100
0010
2000
0100
0100
3100
,
0020
0001
0030
0002
0100
0003
0200
0000
0310
1000
0002
0000
2003
0000
3010
0000
,
0020
1000
0030
2000
0100
3000
0200
0000
0320
0000
0031
0200
0002
0300
1003
0000
,
2000
0010
3000
0020
0100
0030
0200
0000
0302
2000
0003
3100
0020
0000
0130
0000
,
2000
0010
3000
0020
0100
0030
0001
0200
0001
0300
0020
0100
0030
2000
0001
3000
,
0002
0000
0013
0200
0010
0300
0002
1000
0003
1000
0200
0000
0310
0000
0020
0000
,
0032
0100
0003
0200
0001
0300
0002
0010
0003
0200
1000
0300
2000
0000
3010
0000
,
0020
0000
1030
0002
0100
0003
0200
0010
0300
0020
1000
0030
0200
1000
0300
0002
,
0010
0003
0010
0200
1000
0300
2000
0010
3000
0100
0002
0000
2000
0000
3003
0000
,
1100
1010
0000
0110
0101
0000
1101
0000
,
0000
0000
0000
0000
0000
0000
0001
0010
0100
0000
0000
1100
0000
0000
0010
0000
,
1010
1001
0000
0011
0110
0000
0111
0000
,
0000
0000
0000
0000
0000
0000
0010
1000
0100
0000
0000
0110
0000
0000
0001
0000
,
0101
1001
0000
0110
1100
0000
1110
0000
,
0000
0000
0000
0000
0000
0000
0100
0001
1000
0000
0000
1010
0000
0000
0010
0000
,
0110
0101
0000
1100
1001
0000
1011
0000
,
0000
0000
0000
0000
0100
0100
0100
0000
,
1002
0000
0000
0010
0200
0003
0000
1000
,
0020
0000
0300
0000
1000
0000
0000
0000
0130
0000
0000
0001
0010
0000
0100
0000
,
0020
0000
0000
1000
0200
0030
0000
1000
,
0020
0300
0100
0000
0031
1000
0100
0101
,
2010
0000
0000
0010
0200
3000
0000
0001
,
0020
0000
0300
0000
0002
0030
0000
0000
0103
0000
0000
0010
0100
0000
0001
0000
,
0200
0000
0000
0001
0020
0300
0000
0001
,
0200
0030
1000
0000
0301
0010
0100
1000
,
0001
2000
0010
0000
3010
0000
0100
0000
0010
2000
0100
0000
3100
0000
0010
0000
,
0001
1000
0001
0000
0100
1000
0100
0000
0010
0100
0000
0001
0010
0000
0001
0000
,
0100
0020
1000
0000
1030
0000
0001
0000
1000
0200
0010
0000
0310
0000
0100
0000
,
0010
0001
0010
0000
0100
0001
0100
0000
1000
0001
1000
0001
0100
0000
0010
0100
,
0010
0200
0001
0000
0301
0000
0010
0000
0001
2000
0100
0000
3100
0000
0010
0000
,
0100
0001
0100
0000
1000
0001
1000
0000
0010
1000
0000
0100
0010
0000
0001
0000
,
1000
0020
0100
0000
0130
0000
0001
0000
0100
0002
0010
0000
0013
0000
0100
0000
,
0010
1000
0010
0000
0001
1000
0001
0000
0100
1000
0100
0000
0001
1000
0001
M000
,
0000
0000
0110
0000
0010
1000
0100
0000
0010
0000
0001
0000
0100
0000
0001
0100
,
0010
0000
1000
0000
0001
0000
1000
0000
0010
0000
0100
0000
0001
0010
0001
0010
,
000M
0000
1100
0000
1000
0001
0010
0000
0100
0000
0001
0000
0100
0000
1000
0001
,
0010
0000
0100
0000
1000
0000
0010
0000
1000
0000
0001
0000
0100
0001
0100
0001
,
0M00
0000
0011
0000
0010
0001
1000
0000
0100
0000
1000
0000
0010
0000
1000
0010
,
0100
0000
0001
0000
1000
0000
0001
0000
0010
0000
0100
0000
1000
0010
1000
0010
,
M000
0000
0101
0000
0001
1000
0010
0000
0100
0000
1000
0000
0100
0000
0001
1000
,
0010
0100
0010
1000
2200
0000
0010
3300
,
2000
0000
3002
0020
0003
0230
2000
0300
3020
0200
0030
0002
0000
0300
0200
0000
,
0003
0320
2000
0030
3100
0010
0001
0100
0002
0020
0003
0230
2000
0300
0000
3002
,
2000
0003
3010
0200
0002
0300
0020
0000
0003
0230
0020
0300
0230
0020
0300
0230
,
2000
0300
3010
2000
0200
3000
0020
0000
0300
0230
0020
0300
0230
0020
0300
0032
,
2000
0003
3020
0200
0030
0320
2000
0030
3200
0020
0300
0032
0200
0003
2000
0300
,
0000
3200
0020
0000
0300
1030
0100
0020
0002
0030
0013
0200
2000
0000
0000
0300
,
0200
3000
1300
0020
0200
0030
0002
0000
0300
2003
0002
3000
2003
0002
0000
3000
,
0200
0003
0301
0020
0200
0030
2000
0000
0300
3002
2000
0003
3002
2000
0003
3002
,
0010
0003
0010
0001
0100
0001
1000
0010
0400
0040
0000
0000
0000
0330
1000
0000
,
0000
1000
0010
0000
0100
0001
0100
0010
4000
0400
0000
0000
0000
0000
0000
3300
,
0010
0000
0001
1000
0100
0000
0010
0000
0000
0100
1000
0000
1000
0100
0010
0001
,
0100
0000
0010
1000
0001
0000
0100
0000
0000
0100
0001
0000
0001
0010
0100
1000
,
0010
0000
0000
0010
0100
0000
0001
0000
0100
0000
0000
0100
0010
0000
1000
0000
,
0000
1000
0001
0000
0000
0001
0010
0100
1000
0100
0010
0001
0100
0000
0000
0000
,
0010
0000
0100
0001
0010
0000
0001
0000
0000
0004
0040
0000
0000
0000
0000
0033
,
1000
0000
0010
0100
0010
0000
1000
0000
0000
4000
0004
0000
0000
0000
0000
3003
,
2002
0000
0000
0000
0100
0000
0000
0000
0010
0000
3003
0000
1001
0M00
0000
000M
,
1010
0M00
0000
00M0
1100
000M
0000
M000
0110
0000
1001
0000
0110
M000
0000
00M0
,
0202
0000
0000
0000
1000
0000
0000
0000
0010
0000
0303
0000
0101
M000
0000
000M
,
0110
M000
0000
00M0
1001
0M00
0000
M000
0011
0M00
0000
000M
1100
0000
1010
0000
,
2200
0000
0000
0000
0010
0000
0000
0000
0001
0000
3300
0000
1100
000M
0000
00M0
,
1001
0M00
0000
000M
0110
M000
0000
00M0
0101
0000
1010
0000
0101
M000
0000
000M
,
0220
0000
0000
0000
1000
0000
0000
0000
0001
0000
0330
0000
0110
000M
0000
00M0
,
1100
000M
0000
M000
0011
0M00
0000
00M0
1001
0M00
0000
000M
1100
0000
0101
0000
,
1100
0000
1000
0100
0010
0000
0100
1000
0001
0000
1000
0010
0100
0000
0010
1000
,
0001
0000
0010
0100
0010
0001
0100
0010
1000
0010
0100
0001
1000
0010
1000
0100
,
0010
0000
0001
0010
0100
0000
1000
0010
0100
0000
0001
0010
0100
0000
1000
0010
,
0100
0001
0100
0010
1000
0001
1000
0100
1000
0001
0100
0001
0010
0100
0010
0001
,
0100
0000
0010
0001
0010
0000
1000
0001
1000
0000
0100
0001
0100
0000
1000
0001
,
1000
0010
0100
0001
0100
0010
1000
0100
0010
0100
0010
0001
0100
0001
0010
0100
,
1000
0100
0000
1000
0001
0000
1000
0010
0000
0100
0001
0000
0100
0010
0100
0000
,
0001
0010
0100
1000
0100
0010
0001
0100
0004
0400
0000
0000
0000
0000
0000
0303
,
0000
0000
0110
0000
0010
1000
0100
0000
1000
0000
0001
0000
0010
0000
0001
0010
,
0100
0000
1000
0000
0010
0000
1000
0000
0001
0000
0100
0000
0010
0001
0010
0001
,
00M0
0000
0101
0000
0100
0001
1000
0000
0010
0000
1000
0000
0100
0000
1000
0001
,
0100
0000
0001
0000
0010
0000
0100
0000
1000
0000
0001
0000
0100
1000
0100
1000
,
0M00
0000
1010
0000
0010
0100
0001
0000
1000
0000
0001
0000
0010
0000
0001
0010
,
0100
0000
1000
0000
0010
0000
0100
0000
0010
0000
1000
0000
0100
0001
0100
0001
,
0M00
0000
0011
0000
0010
0001
0100
0000
0010
0000
1000
0000
0100
0000
1000
0100
,
0010
0000
0100
0000
1000
0000
0010
0000
0100
0000
0001
0000
0010
1000
0010
0000
,
M020
0100
0030
0200
1000
0300
2000
0010
3000
0020
1000
0030
2000
0000
3001
0000
,
0002
0010
0003
0020
0100
0030
0200
0010
0300
0020
0001
0030
0002
0000
1003
0000
,
2000
0001
3000
0002
0100
0003
0200
0010
0300
0020
1000
0030
1000
0200
0010
0300
,
0020
0001
0030
0002
0100
0003
0200
1000
0300
2000
0100
3000
0100
0002
1000
0003
,
2000
0010
3000
0020
1000
0030
2000
0100
3000
0200
0010
0300
0020
0000
0130
0000
,
0200
1000
0300
2000
0001
3000
0002
0010
0003
0020
0001
0030
0002
0000
0103
0000
,
0200
0001
0300
0002
1000
0003
2000
0010
3000
0020
0100
0030
0100
0002
0010
0003
,
0020
0100
0030
0200
1000
0300
2000
0010
3000
0020
0001
0030
0001
0010
0200
0000
,
0302
0000
1000
0003
0001
0000
0020
0000
0230
0000
1000
0300
0100
0000
2000
0000
,
3002
0000
0100
0003
0020
0000
1000
0030
0200
0000
0000
0310
0100
0000
2000
0000
,
3020
0000
0100
0030
0010
0000
2000
0000
3002
0000
0010
0003
0001
0000
2000
0000
,
3200
0000
0010
0300
0200
0000
1000
0300
0002
0000
2003
0000
3020
0000
0130
0001
,
0020
0000
0000
0100
0002
0030
0000
1000
,
0200
0000
0003
0000
1000
0000
0000
0000
0310
0000
0000
0100
0001
0000
0010
0000
,
0200
0000
0000
0010
2000
0300
0000
0001
,
0020
0000
3000
0000
0001
0000
0000
0000
0130
0000
0010
0000
4000
0004
0000
0000
,
0000
0000
3003
0000
;
